+ Reply to Thread
Page 1 of 3 1 2 3 LastLast
Results 1 to 15 of 38




    advertisement


  1. 9 No | Yes 25

    با حضور : گلشيفته فرهانی Chicken With Plum دانلود فيلم جديد



    ژانر : درام
    تاریخ انتشار : 26 اکتبر 2011
    امتیاز : 7,3/10
    محصول : فرانسه
    مدت زمان فیلم : 93 دقیقه
    فرمت: Avi
    حجم : 700 MB
    کاگردان :Vincent Paronnaud, Marjane Satrapi
    بازیگران : Mathieu Amalric , Edouard Baer and Golshifteh Farahani

    خلاصه داستان : داستان درباره ی ناصر علی، یه موسیقیدان بسیار با استعداد هست که بعد از یه مشاجره ی سخت با همسرش ، همسرش ویولن ناصر علی رو میشکونه . اون بعد از این اتفاق تصمیم میگیره برای ویولونش یه جایگزین انتخاب کنه، و حتی کار به خودکشی هم میرسه . این فیلم آخرین هفته ی زندگی ناصر علی رو نشون میده ، و در این یه هفته ی آخر که به تصویر کشیده میشه ، فلش بک هایی از زندگی قبلیش رو میتونیم ببینیم و همینطور تصاویری از آینده ی زندگی ناصر علی و بزرگ شدن بچه ...

    Code:
    Format : AVI Format/Info : Audio Video Interleave File size : 701 MiB Duration : 1h 31mn Overall bit rate mode : Variable Overall bit rate : 1 069 Kbps Writing application : Nandub v1.0rc2 Writing library : Nandub build 1852/release Format : MPEG-4 Visual Format profile : Simple@L3 Format settings, BVOP : 2 Format settings, QPel : No Format settings, GMC : No warppoints Muxing mode : Packed bitstream Codec ID : XVID Codec ID/Hint : XviD Duration : 1h 31mn Bit rate : 927 Kbps Width : 640 pixels Height : 272 pixels Display aspect ratio : 2.35:1 Frame rate : 23.976 fps Color space : YUV Chroma subsampling : 4:2:0 Bit depth : 8 bits Scan type : Progressive Compression mode : Lossy Bits/(Pixel*Frame) : 0.222 Stream size : 608 MiB Format : MPEG Audio Format version : Version 1 Format profile : Layer 3 Mode : Joint stereo Mode extension : MS Stereo Codec ID : 55 Codec ID/Hint : MP3 Duration : 1h 31mn Bit rate mode : Variable Bit rate : 128 Kbps Channel(s) : 2 channels Sampling rate : 48.0 KHz Compression mode : Lossy Stream size : 84.7 MiB (12%) Alignment : Aligned on interleaves Interleave, duration : 24 ms (0.58 video frame) Interleave, preload duration : 136 ms

    Download It : Chicken With Plums - (720p)..Avi.Zip


    .........................................


    Download Subtitle :
    Download It


    اگر زیرنویس عجیب غریب نشان میده مراحل زیر را طی کنید.

    اگر از ویندوز se7en و ویستا استفاده میکنید مراحل زیر رو طی کنید:

    در ویندوز 7 و ویستا روش کار اینه که ابتدا باید به Control panel برید و
    از اونجا در قسمت Clock,Language and Region اولین گزینه یعنی Change keyboard or
    other input methods رو بزنید و در پنجره باز شده به تب Administrative برین دکمه ی
    پایینی یعنی Change system locale رو بزنید و در پنجره باز شده Persian رو اتخاب
    کرده و OK کنید و سپس کامپیوتر رو Restart کنین.
    Last edited by blackspeed_2008; 04-15-2012 at 08:11 PM.

  2. #2
  3. #3
  4. #4
  5. #5
  6. #6

    0 No | Yes 0
    man in film ro to franceh dideam ey begy nagey bad niest in filma farncvay hast shakteh marjan satrapi keh filme perspolies ro shakteh va hameh bazeigerha va avamleh filme beh joze golshiefteh farncvay hastan va beh zaban farncvay shakteh shodeh shahnheay cartoony va jelvehay viezh gashangy dareh hamin chizeh khasey niest
  7. #7

    0 No | Yes 0
    Chera subtitle dorost kar nemikone? vase man ye mosht alefbaye ajib neshoun mide :-(
  8. #8

    0 No | Yes 1
    man trailer in film ra dede bodam kheyli montazer bodam biyad
    damet garm dadash gozashti vaseh download
  9. #9
  10. #10

    0 No | Yes 2
    Quote Originally Posted by Napirasou View Post
    Chera subtitle dorost kar nemikone? vase man ye mosht alefbaye ajib neshoun mide :-(

    اگر زیرنویس عجیب غریب نشان میده مراحل زیر را طی کنید.

    اگر از ویندوز se7en و ویستا استفاده میکنید مراحل زیر رو طی کنید:

    در ویندوز 7 و ویستا روش کار اینه که ابتدا باید به Control panel برید و
    از اونجا در قسمت Clock,Language and Region اولین گزینه یعنی Change keyboard or
    other input methods رو بزنید و در پنجره باز شده به تب Administrative برین دکمه ی
    پایینی یعنی Change system locale رو بزنید و در پنجره باز شده Persian رو اتخاب
    کرده و OK کنید و سپس کامپیوتر رو Restart کنین.
  11. #11

    17 No | Yes 9
    حیف وقت که بزاریم فیلم این خاین و آبرو بره زنان ایرانی رو دانلود کنیم.
  12. #12

    3 No | Yes 4
    ممنون ،باید فیلم خوبی باشه ،دستت درد نکنه
  13. #13
  14. #14
  15. #15

    3 No | Yes 10
    Quote Originally Posted by jaki55 View Post
    حیف وقت که بزاریم فیلم این خاین و آبرو بره زنان ایرانی رو دانلود کنیم.
    Chetor vaghti daashti filme raabeteye khosoosiye Zahra Amirebrahimi ro negah mikardi chenin hessi behet dast nadad?!!!! amsaaleh toan ke aaberoo mibaran na yek zaneh berahneh...........

 

Thread Information

Users Browsing this Thread

There are currently 1 users browsing this thread. (0 members and 1 guests)

     

Similar Threads

  1. Clip: DJ Chicken
    By blackspeed_2008 in forum Off Topic - بحث و گفتگوی آزاد
    Replies: 1
    Last Post: 08-21-2010, 04:23 PM
  2. What came first the chicken or the egg?
    By 2 in forum Off Topic - بحث و گفتگوی آزاد
    Replies: 0
    Last Post: 07-14-2010, 05:35 PM
  3. Chicken Little
    By [Deltaforce] in forum Off Topic - بحث و گفتگوی آزاد
    Replies: 5
    Last Post: 10-23-2009, 10:48 PM
  4. which one came first Egg or chicken?
    By Baran_Eshgh in forum Off Topic - بحث و گفتگوی آزاد
    Replies: 7
    Last Post: 02-05-2007, 02:41 AM

Bookmarks

Posting Permissions

  • You may not post new threads
  • You may not post replies
  • You may not post attachments
  • You may not edit your posts